Facebook Live Streaming Tutorial for vMix




About this tutorial:

Video duration: 2:42
Ever wanted to know how to stream to Facebook live? Well now stream directly to Facebook from your vMix live video production!

This video tutorial will discuss how to live stream to Facebook Live using vMix through the live streaming settings.

For older version of vMix click here-

You can now stream continuously to Facebook Live-

For more information about Facebook Live streaming click here-…

Incoming search terms:

Post Author: OfficeTutes.com

Apple lover, ICT and LEAN consultant, MS Office lecturer My other website with video tutorials - Tutorials, guides and news for iPhones and iPads

27 thoughts on “Facebook Live Streaming Tutorial for vMix

    Japs

    (February 1, 2019 - 9:56 am)

    I have vmix 11.0 can I use this feature on 11.0

    My Newborn Beauty

    (February 1, 2019 - 9:56 am)

    I cant bring that Facebook browser. In you video you just click add and it seem working. In my case the window look like Facebook login page were i need to tipe all y login info. And i can to it( What i am doing wrong

    The News Society

    (February 1, 2019 - 9:56 am)

    can we live stream a pre recorded video with it?

    junjun jerry

    (February 1, 2019 - 9:56 am)

    how do i use multiple camera for multiple view on facebook live using vmix?

    Avinash Malap

    (February 1, 2019 - 9:56 am)

    I want this Machine & software tell me Price

    MHS SPORTS

    (February 1, 2019 - 9:56 am)

    kindly tel me if i show live cricket match on my page from other website any copyright issue occur,

    Mel Taylor

    (February 1, 2019 - 9:56 am)

    this tut is too confusing to follow. not sure if i will buy.

    Ralph Bejjani

    (February 1, 2019 - 9:56 am)

    Can we stream a SQUARE format 1:1 yet? If so please help

    KIM UN DestroyUSA

    (February 1, 2019 - 9:56 am)

    Please help when I click on start it's says, could not find steam ,click fb setting above ti create a new stream first. Send the error blah blah how can I get better live stream 😢😢😢😢

    I can replay ?

    agnes mashamba

    (February 1, 2019 - 9:56 am)

    am blown away with this, i wana try it tonight, Brian from SA

    emil pop

    (February 1, 2019 - 9:56 am)

    Hi, does a 6o$ version work with this FB feature?

    Techshiil New App

    (February 1, 2019 - 9:56 am)

    HOW CAN I MAKE LOW CONNECTION SETTING…PLZ HELP 6 Mpbs

    Global Prayer Palace [Kharece Temple]

    (February 1, 2019 - 9:56 am)

    Hi i am getting this message could not find stream. click Facebook settings above to create a new stream first but i already did that.

    Facebook Verifier

    (February 1, 2019 - 9:56 am)

    is it 25/7 live stream?

    Jeremy P.

    (February 1, 2019 - 9:56 am)

    I've heard that the FB page needs to be "validated" first. Is that true? Thanks

    TurquoiseFilms

    (February 1, 2019 - 9:56 am)

    its it possible to stream 1080 to other channels like twitch while streaming 720 to facebook?

    Crank On Beat

    (February 1, 2019 - 9:56 am)

    how can i stream same video always until i stop my stream ? help please

    Antony Nathan

    (February 1, 2019 - 9:56 am)

    login to facebook says "Navigation to the webpage was canceled"

    Dre Zee

    (February 1, 2019 - 9:56 am)

    If I setup a monitor for the person being filmed. How do I get the live comments to show up on it?

    Sharifuddin Mahmud

    (February 1, 2019 - 9:56 am)

    vMix Error
    Unable to connect to streaming server

    FFMPEG.Exited
    Streaming
    Unknown Error
    please tell me quickly how i will solve the error problem

    Glennpakz Getubig

    (February 1, 2019 - 9:56 am)

    HELP ME vmix!

    error streaming!

    FFMPEG.Exited
    Streaming
    Stream #0:1: Audio: pcm_s16le, 48000 Hz, 2 channels, s16, 1536 kb/s
    rtmp://rtmp-api.facebook.com:80/rtmp/1381448891878062?s_l=1&a=ATge3B67GP-8i2BS: Input/output error

    ffmpeg started on 2017-03-20 at 08:43:39
    Report written to "C:ProgramDatavMixstreamingstreaming 20170320-084339.log"
    ffmpeg version 2.8.git Copyright (c) 2000-2015 the FFmpeg developers
    built with gcc 4.8.1 (rev2, Built by MinGW-W64 project)
    configuration: –enable-gpl –enable-version3 –enable-libx264 –enable-zlib –enable-libfaac –enable-nonfree –cpu=i686 –enable-nvenc
    libavutil 55. 2.100 / 55. 2.100
    libavcodec 57. 3.100 / 57. 3.100
    libavformat 57. 2.100 / 57. 2.100
    libavdevice 57. 0.100 / 57. 0.100
    libavfilter 6. 9.100 / 6. 9.100
    libswscale 4. 0.100 / 4. 0.100
    libswresample 2. 0.100 / 2. 0.100
    libpostproc 54. 0.100 / 54. 0.100
    Guessed Channel Layout for Input Stream #0.1 : stereo
    Input #0, dshow, from 'video=vMix Video:audio=vMix Audio':
    Duration: N/A, start: 121773.076000, bitrate: 1536 kb/s
    Stream #0:0: Video: rawvideo (UYVY / 0x59565955), uyvy422, 1280×720, 29.97 tbr, 10000k tbn, 29.97 tbc
    Stream #0:1: Audio: pcm_s16le, 48000 Hz, 2 channels, s16, 1536 kb/s
    [tcp @ 0293ef80] TCP Buffer has been set to 3990528 bytes
    rtmp://rtmp-api.facebook.com:80/rtmp/1381448891878062?s_l=1&a=ATge3B67GP-8i2BS: Input/output error

    TuristaTelevision

    (February 1, 2019 - 9:56 am)

    how stream from my website?

    SuperTraderTV

    (February 1, 2019 - 9:56 am)

    hey!!
    we are trying for the first time live streaming to facebook.
    we have a problem with login to facebook. its stucks after "continue as ……… "
    is somebody know how to fix it?

    Lego Budman

    (February 1, 2019 - 9:56 am)

    can I stream a movie with this app thru fb?

    Felipe Raibolt

    (February 1, 2019 - 9:56 am)

    Hi! Could i stream for Facebook and Youtube at the same time? Is there anyway to do this?

    Yusuf Isak

    (February 1, 2019 - 9:56 am)

    Hi, thank you for this tutorial. I am streaming a live video onto facebook, but I have a problem with the drop down menu under locations. It lists my timeline, pages I manage and events, but only 2 groups. The groups that I intend to stream onto are missing in this list. Why is this so?

Leave a Reply

Your email address will not be published. Required fields are marked *